请选择 进入手机版 | 继续访问电脑版

bilibili用户反馈论坛

!header_login!

!bilibili_header_login_tip!

搜索
热搜: 番剧 播放
查看: 636|回复: 11

[网页端] 4G以上 8G以下 大小 的视频,投稿始终显示转码失败

[复制链接]

1

主题

7

帖子

25

积分

小萌新

积分
25
发表于 2019-1-9 23:37:43 | 显示全部楼层 |阅读模式

点击网页右上角登录,为了打开新世界的大门

您需要 登录 才可以下载或查看,没有帐号?立即注册

x
两个投稿视频大小分别为6G与7G多。
已尝试过如下操作:
1.重新投稿五次,均转码失败
2.使用官方工具压制,结果相同
3.使用ffmpeg自行压制,依旧提示转码失败
4.使用投稿工具,提示视频大小超过4G
5.尝试联系在线客服(4次),均未解决问题

附加信息:
视频码率均小于1800kbps,音频均在限制码率之下
两个视频样本文件可在
https://1dv.papapoi.com/video/lr.mp4

https://1dv.papapoi.com/video/r.mp4
处下载,可供技术人员测试使用

文件信息:
  1. lr.mp4
  2. 容器:MPEG-4
  3. 总码率:76.6 kb/s
  4. 大小:6.94 GiB
  5. 时长:216 h 6 min 40 s 59 ms

  6. 视频(1):AVC
  7. Profile:Baseline@L1.1
  8. 码率:66.6 kb/s
  9. 文件大小:6.04 GiB (87%)
  10. 分辨率:252x216
  11. 画面比例:1.167(1.167)
  12. 像素宽高比:1.000
  13. 帧率:12.000 FPS
  14. 色彩空间:YUV
  15. 色度抽样:4:2:0
  16. 位深度:8 bits
  17. 扫描方式:逐行扫描
  18. 总帧数:9335240

  19. ====详细信息====
  20. ID                                       : 1
  21. Format                                   : AVC
  22. Format/Info                              : Advanced Video Codec
  23. Format profile                           : Baseline@L1.1
  24. Format settings, CABAC                   : No
  25. Format settings, ReFrames                : 1 frame
  26. Codec ID                                 : avc1
  27. Codec ID/Info                            : Advanced Video Coding
  28. Duration                                 : 216 h
  29. Bit rate                                 : 66.6 kb/s
  30. Width                                    : 252 pixels
  31. Height                                   : 216 pixels
  32. Display aspect ratio                     : 1.167
  33. Frame rate mode                          : Variable
  34. Frame rate                               : 12.000 FPS
  35. Minimum frame rate                       : 7.173 FPS
  36. Maximum frame rate                       : 12.000 FPS
  37. Color space                              : YUV
  38. Chroma subsampling                       : 4:2:0
  39. Bit depth                                : 8 bits
  40. Scan type                                : Progressive
  41. Bits/(Pixel*Frame)                       : 0.102
  42. Stream size                              : 6.04 GiB (87%)
复制代码
  1. r.mp4
  2. 容器:MPEG-4
  3. 总码率:1 839 kb/s
  4. 大小:7.80 GiB
  5. 时长:10 h 7 min 17 s 500 ms

  6. 视频(1):AVC
  7. Profile:Baseline@L4
  8. 码率:1 700 kb/s
  9. 文件大小:7.24 GiB (93%)
  10. 分辨率:1256x1080
  11. 画面比例:1.163(1.163)
  12. 像素宽高比:1.000
  13. 帧率:12.000 FPS
  14. 色彩空间:YUV
  15. 色度抽样:4:2:0
  16. 位深度:8 bits
  17. 扫描方式:逐行扫描
  18. 总帧数:437250
  19. 编码库:x264 core 148 r2762 90a61ec
  20. 编码设置:opencl=1 / cabac=0 / ref=1 / deblock=1:0:0 / *yse=0x1:0x111 / me=hex / subme=2 / psy=1 / psy_rd=1.00:0.00 / mixed_ref=0 / me_range=16 / chroma_me=1 / trellis=0 / 8x8dct=0 / cqm=0 / deadzone=21,11 / fast_pskip=1 / chroma_qp_offset=0 / threads=12 / lookahead_threads=4 / sliced_threads=0 / nr=0 / decimate=1 / interlaced=0 / bluray_compat=0 / constrained_intra=0 / bframes=0 / weightp=0 / keyint=250 / keyint_min=12 / scenecut=40 / intra_refresh=0 / rc_lookahead=10 / rc=abr / mbtree=1 / bitrate=1700 / ratetol=1.0 / qcomp=0.60 / qpmin=0 / qpmax=69 / qpstep=4 / ip_ratio=1.40 / aq=1:1.00

  21. 音频(2):AAC
  22. 大小:556 MiB (7%)
  23. 码率:128 kb/s
  24. 采样率:44.1 kHz
  25. 声道数:2

  26. ====详细信息====
  27. ID                                       : 1
  28. Format                                   : AVC
  29. Format/Info                              : Advanced Video Codec
  30. Format profile                           : Baseline@L4
  31. Format settings, CABAC                   : No
  32. Format settings, ReFrames                : 1 frame
  33. Codec ID                                 : avc1
  34. Codec ID/Info                            : Advanced Video Coding
  35. Duration                                 : 10 h 7 min
  36. Bit rate                                 : 1 700 kb/s
  37. Width                                    : 1 256 pixels
  38. Height                                   : 1 080 pixels
  39. Display aspect ratio                     : 1.163
  40. Frame rate mode                          : Constant
  41. Frame rate                               : 12.000 FPS
  42. Color space                              : YUV
  43. Chroma subsampling                       : 4:2:0
  44. Bit depth                                : 8 bits
  45. Scan type                                : Progressive
  46. Bits/(Pixel*Frame)                       : 0.104
  47. Stream size                              : 7.24 GiB (93%)
  48. Writing library                          : x264 core 148 r2762 90a61ec
  49. Encoding settings                        : opencl=1 / cabac=0 / ref=1 / deblock=1:0:0 / *yse=0x1:0x111 / me=hex / subme=2 / psy=1 / psy_rd=1.00:0.00 / mixed_ref=0 / me_range=16 / chroma_me=1 / trellis=0 / 8x8dct=0 / cqm=0 / deadzone=21,11 / fast_pskip=1 / chroma_qp_offset=0 / threads=12 / lookahead_threads=4 / sliced_threads=0 / nr=0 / decimate=1 / interlaced=0 / bluray_compat=0 / constrained_intra=0 / bframes=0 / weightp=0 / keyint=250 / keyint_min=12 / scenecut=40 / intra_refresh=0 / rc_lookahead=10 / rc=abr / mbtree=1 / bitrate=1700 / ratetol=1.0 / qcomp=0.60 / qpmin=0 / qpmax=69 / qpstep=4 / ip_ratio=1.40 / aq=1:1.00

  50. ID                                       : 2
  51. Format                                   : AAC
  52. Format/Info                              : Advanced Audio Codec
  53. Format profile                           : LC
  54. Codec ID                                 : 40
  55. Duration                                 : 10 h 7 min
  56. Bit rate mode                            : Variable
  57. Bit rate                                 : 128 kb/s
  58. Maximum bit rate                         : 192 kb/s
  59. Channel(s)                               : 2 channels
  60. Channel positions                        : Front: L R
  61. Sampling rate                            : 44.1 kHz
  62. Frame rate                               : 43.066 FPS (1024 spf)
  63. Compression mode                         : Lossy
  64. Stream size                              : 556 MiB (7%)
  65. Default                                  : Yes
  66. Alternate group                          : 1

复制代码


回复

使用道具 举报

1

主题

7

帖子

25

积分

小萌新

积分
25
 楼主| 发表于 2019-1-12 11:51:40 | 显示全部楼层
B站百科全书 发表于 2019-1-10 18:07
您反映的情况这边已反馈,个人推测是视频时长太长导致转码失败,另外投稿工具已经很久没有更新了,无法适配 ...

所以我一再询问客服有没有视频时长限制,我视频所有标准都是按符号要求的参数压制的,这么搞的话只显示一个转码失败,不显示原因,我也很难办
而且从第一次联系客服到现在已经过去半个月了,完全没进度
回复 支持 反对

使用道具 举报

1

主题

7

帖子

25

积分

小萌新

积分
25
 楼主| 发表于 2019-1-19 17:16:57 | 显示全部楼层
B站百科全书 发表于 2019-1-13 20:11
这边问了一下,得到的回应是应该是视频时长太长导致转码失败,而且“Profile:”这个很低也可能是一个因 ...

另外我拿四年前上传的视频试了试,依旧是转码失败(当年选的是乐视源)
是不是说明b站当前后台,视频处理逻辑有着明显的不合理之处?
还是说有一些参数标准已经改变了,却没有在参数介绍页面展示出来?
回复 支持 反对

使用道具 举报

22

主题

8161

帖子

1万

积分

版主

Rank: 7Rank: 7Rank: 7

积分
19220
发表于 2019-1-12 13:53:17 | 显示全部楼层
晨旭 发表于 2019-1-12 11:51
所以我一再询问客服有没有视频时长限制,我视频所有标准都是按符号要求的参数压制的,这么搞的话只显示一 ...

目前视频投稿对视频的时长没有上限要求,但经过特别处理(如后黑、倍速等)的视频存在转码失败的可能性。
在以前是存在由于单个视频时长太长导致转码失败的情况,这边再反馈询问一下。
本人虽然是版主,但并不是B站官方人员
目前各版主是兼职管理,不能每天24小时在线,如长时间无回复/有急需处理的情况请联系:
主站客服
回复 支持 反对

使用道具 举报

1

主题

7

帖子

25

积分

小萌新

积分
25
 楼主| 发表于 2019-1-9 23:39:36 | 显示全部楼层
av号为av39434341和av39476836
回复 支持 反对

使用道具 举报

22

主题

8161

帖子

1万

积分

版主

Rank: 7Rank: 7Rank: 7

积分
19220
发表于 2019-1-10 18:07:08 | 显示全部楼层
本帖最后由 B站百科全书 于 2019-1-10 18:09 编辑

您反映的情况这边已反馈,个人推测是视频时长太长导致转码失败,另外投稿工具已经很久没有更新了,无法适配新的压制标准。
本人虽然是版主,但并不是B站官方人员
目前各版主是兼职管理,不能每天24小时在线,如长时间无回复/有急需处理的情况请联系:
主站客服
回复 支持 反对

使用道具 举报

1

主题

7

帖子

19

积分

小萌新

积分
19
发表于 2019-1-13 14:44:26 | 显示全部楼层
其实可以考虑切开视频分p投
回复 支持 反对

使用道具 举报

1

主题

7

帖子

25

积分

小萌新

积分
25
 楼主| 发表于 2019-1-13 15:01:18 | 显示全部楼层
暴脾气车队 发表于 2019-1-13 14:44
其实可以考虑切开视频分p投

分p的话就没什么意思了,本来就是一个整体视频,没做后黑倍速之类的处理
回复 支持 反对

使用道具 举报

22

主题

8161

帖子

1万

积分

版主

Rank: 7Rank: 7Rank: 7

积分
19220
发表于 2019-1-13 20:11:20 | 显示全部楼层
晨旭 发表于 2019-1-13 15:01
分p的话就没什么意思了,本来就是一个整体视频,没做后黑倍速之类的处理 ...

这边问了一下,得到的回应是应该是视频时长太长导致转码失败,而且“Profile:Baseline@L1.1”这个很低也可能是一个因素,建议试试将单个视频分割成多段视频以分P形式上传。
本人虽然是版主,但并不是B站官方人员
目前各版主是兼职管理,不能每天24小时在线,如长时间无回复/有急需处理的情况请联系:
主站客服
回复 支持 反对

使用道具 举报

1

主题

7

帖子

25

积分

小萌新

积分
25
 楼主| 发表于 2019-1-19 17:13:17 | 显示全部楼层
B站百科全书 发表于 2019-1-13 20:11
这边问了一下,得到的回应是应该是视频时长太长导致转码失败,而且“Profile:”这个很低也可能是一个因 ...

那么我想知道具体能被b站后台二压转码通过的参数,具体是什么样子的?时长和其他参数的阈值要求是多少?
这个视频最主要的就是单p时长了,能分p的话我就不会尝试这么多次了
回复 支持 反对

使用道具 举报

您需要登录后才可以发帖 登录

本版积分规则

用户须知|手机版|小黑屋|bilibili  

GMT+8, 2019-6-16 23:38 , Processed in 0.082573 second(s), 20 queries , Xcache On.

Powered by Discuz! X3.2

© 2001-2013 Comsenz Inc.

快速回复 返回顶部 返回列表