请选择 进入手机版 | 继续访问电脑版

bilibili用户反馈论坛

!header_login!

!bilibili_header_login_tip!

搜索
热搜: 番剧 播放
查看: 883|回复: 7

符合二压条件的视频还是被二压了,难道有隐藏二压规则?

[复制链接]

5

主题

9

帖子

75

积分

小萌新

积分
75
发表于 2019-2-3 17:07:33 | 显示全部楼层 |阅读模式

点击网页右上角登录,为了打开新世界的大门

您需要 登录 才可以下载或查看,没有帐号?立即注册

x
肇事视频:av42393265

原视频信息:
2013 - 3_1.mp4
容器:MPEG-4
总码率:6 264 Kbps
大小:181 MiB
时长:4mn 2s 859ms

视频(1):AVC
码率:6 000 Kbps
大小:172 MiB (95%)
分辨率:1920x1080
宽高比:16:9(1.778)
帧率:29.970 fps
位深度:8 bits
像素宽高比:1.000
编码库:x264 - core 157
Profile:High@L5
编码时间:
总帧数:7278

音频(2):AAC
大小:9.29 MiB (5%)
码率:321 Kbps
采样率:48.0 KHz
声道数:2

====详细信息====
ID                                       : 1
Format                                   : AVC
Format/Info                              : Advanced Video Codec
Format profile                           : High@L5
Format settings, CABAC                   : Yes
Format settings, ReFrames                : 8 frames
Codec ID                                 : avc1
Codec ID/Info                            : Advanced Video Coding
Duration                                 : 4mn 2s
Bit rate                                 : 6 000 Kbps
Width                                    : 1 920 pixels
Height                                   : 1 080 pixels
Display aspect ratio                     : 16:9
Frame rate mode                          : Constant
Frame rate                               : 29.970 fps
Color space                              : YUV
Chroma subsampling                       : 4:2:0
Bit depth                                : 8 bits
Scan type                                : Progressive
Bits/(Pixel*Frame)                       : 0.097
Stream size                              : 172 MiB (95%)
Writing library                          : x264 core 157
Encoding settings                        : cabac=1 / ref=8 / deblock=1:0:0 / *yse=0x3:0x133 / me=umh / subme=9 / psy=1 / psy_rd=1.00:0.00 / mixed_ref=1 / me_range=16 / chroma_me=1 / trellis=2 / 8x8dct=1 / cqm=0 / deadzone=21,11 / fast_pskip=1 / chroma_qp_offset=-2 / threads=12 / lookahead_threads=1 / sliced_threads=0 / nr=0 / decimate=1 / interlaced=0 / bluray_compat=0 / constrained_intra=0 / bframes=3 / b_pyramid=2 / b_adapt=2 / b_bias=0 / direct=3 / weightb=1 / open_gop=0 / weightp=2 / keyint=300 / keyint_min=1 / scenecut=40 / intra_refresh=0 / rc_lookahead=60 / rc=abr / mbtree=1 / bitrate=6000 / ratetol=1.0 / qcomp=0.60 / qpmin=0 / qpmax=69 / qpstep=4 / ip_ratio=1.40 / aq=1:1.00
Color range                              : Limited
Color primaries                          : BT.709
Transfer characteristics                 : BT.709
Matrix coefficients                      : BT.709

ID                                       : 2
Format                                   : AAC
Format/Info                              : Advanced Audio Codec
Format profile                           : Main
Codec ID                                 : 40
Duration                                 : 4mn 2s
Bit rate mode                            : Constant
Bit rate                                 : 321 Kbps
Channel(s)                               : 2 channels
Channel positions                        : Front: L R
Sampling rate                            : 48.0 KHz
Compression mode                         : Lossy
Stream size                              : 9.29 MiB (5%)

个人认为不是码率的问题,因为我在这个视频里已经上传过好6个不同码率的版本了,全部被二压。后来我又在这个视频里又上传了另外一个视频却没有被二压,视频信息如下。
2014 - 6.mp4
容器:MPEG-4
总码率:6 328 Kbps
大小:205 MiB
时长:4mn 31s 126ms

视频(1):AVC
码率:6 000 Kbps
大小:194 MiB (95%)
分辨率:1920x1080
宽高比:16:9(1.778)
帧率:29.970 fps
位深度:8 bits
像素宽高比:1.000
编码库:x264 - core 157
Profile:High@L5
编码时间:
总帧数:8125

音频(2):AAC
大小:10.4 MiB (5%)
码率:321 Kbps
采样率:48.0 KHz
声道数:2

====详细信息====
ID                                       : 1
Format                                   : AVC
Format/Info                              : Advanced Video Codec
Format profile                           : High@L5
Format settings, CABAC                   : Yes
Format settings, ReFrames                : 8 frames
Codec ID                                 : avc1
Codec ID/Info                            : Advanced Video Coding
Duration                                 : 4mn 31s
Bit rate                                 : 6 000 Kbps
Width                                    : 1 920 pixels
Height                                   : 1 080 pixels
Display aspect ratio                     : 16:9
Frame rate mode                          : Constant
Frame rate                               : 29.970 fps
Color space                              : YUV
Chroma subsampling                       : 4:2:0
Bit depth                                : 8 bits
Scan type                                : Progressive
Bits/(Pixel*Frame)                       : 0.097
Stream size                              : 194 MiB (95%)
Writing library                          : x264 core 157
Encoding settings                        : cabac=1 / ref=8 / deblock=1:-2:-2 / *yse=0x3:0x133 / me=umh / subme=9 / psy=1 / psy_rd=1.00:0.25 / mixed_ref=1 / me_range=16 / chroma_me=1 / trellis=2 / 8x8dct=1 / cqm=0 / deadzone=6,6 / fast_pskip=1 / chroma_qp_offset=-4 / threads=12 / lookahead_threads=1 / sliced_threads=0 / nr=0 / decimate=0 / interlaced=0 / bluray_compat=0 / constrained_intra=0 / bframes=3 / b_pyramid=2 / b_adapt=2 / b_bias=0 / direct=3 / weightb=1 / open_gop=0 / weightp=2 / keyint=500 / keyint_min=1 / scenecut=40 / intra_refresh=0 / rc_lookahead=60 / rc=abr / mbtree=1 / bitrate=6000 / ratetol=1.0 / qcomp=0.80 / qpmin=0 / qpmax=69 / qpstep=4 / ip_ratio=1.10 / aq=1:0.50
Color range                              : Limited
Color primaries                          : BT.709
Transfer characteristics                 : BT.709
Matrix coefficients                      : BT.709

ID                                       : 2
Format                                   : AAC
Format/Info                              : Advanced Audio Codec
Format profile                           : LC
Codec ID                                 : 40
Duration                                 : 4mn 31s
Bit rate mode                            : Constant
Bit rate                                 : 321 Kbps
Channel(s)                               : 2 channels
Channel positions                        : Front: L R
Sampling rate                            : 48.0 KHz
Compression mode                         : Lossy
Stream size                              : 10.4 MiB (5%)

谁能给我解释一下这是为什么~
回复

使用道具 举报

22

主题

8713

帖子

2万

积分

版主

Rank: 7Rank: 7Rank: 7

积分
20402
发表于 2019-2-5 20:22:49 | 显示全部楼层
目前这边看视频av42393265(1080P+清晰度)中全部分P的视频码率都没有超过6000,这边判断您在本帖提供的两个视频信息所对应的视频都被二压了:
360截图20190205201416223.jpg 360截图20190205201438419.jpg 360截图20190205201451847.jpg 360截图20190205201459335.jpg 360截图20190205201529821.jpg

根据您提供的相关视频信息,这边看相关视频即使是1080P+清晰度也会被二压,目前在二压要求中音频采样率要=44100,音频码率最高为320kbps
360截图20190205201951909.jpg
而您提供的视频信息中音频采样率均为48.0 KHz(48000),音频码率均为321,不符合相关二压要求
360截图20190205202143056.jpg 360截图20190205202158954.jpg
本人虽然是版主,但并不是B站官方人员
目前各版主是兼职管理,不能每天24小时在线,如长时间无回复/有急需处理的情况请联系:
主站客服
回复 支持 反对

使用道具 举报

5

主题

9

帖子

75

积分

小萌新

积分
75
 楼主| 发表于 2019-2-5 23:37:47 | 显示全部楼层
[color='999999]B站百科全书 发表于 2019-2-5 20:22
目前这边看视频av42393265(1080P+清晰度)中全部分P的视频码率都没有超过6000,这边判断您在本帖提供的两 ...

我可以确定P2未被二压,因为我在压制时设置的是Level 5,如果被二压Level应该会降到Level 4,
然而我用手机端查看的视频信息时发现P2的Level并未降低依旧是Level 5。所以我推测被二压与音频码率无关。
至于采样率就更无关了,已经有大量Up主的实验证明B站的音频采样率上限并非是44100而是48000,这一猜想也已经得到了B站的主站客服的认证。
我有种感觉,我可能发现了一个B站二压系统的bug~
回复 支持 反对

使用道具 举报

22

主题

8713

帖子

2万

积分

版主

Rank: 7Rank: 7Rank: 7

积分
20402
发表于 2019-2-6 20:52:37 | 显示全部楼层
[color='999999]姬基航 发表于 2019-2-5 23:37
我可以确定P2未被二压,因为我在压制时设置的是Level 5,如果被二压Level应该会降到Level 4,
然而我用手 ...

.。。。。这边反馈询问一下。
本人虽然是版主,但并不是B站官方人员
目前各版主是兼职管理,不能每天24小时在线,如长时间无回复/有急需处理的情况请联系:
主站客服
回复 支持 反对

使用道具 举报

4

主题

1475

帖子

3750

积分

版主

Rank: 7Rank: 7Rank: 7

积分
3750
发表于 2019-2-6 21:20:12 | 显示全部楼层
你好,给你两条建议
1. 压制时不要卡6000,最好选择5900
2.你这边极有可能是峰值码率超了,网站早在18年5月就发布公告要求稿件峰值码率不能超过24Mbps
如果可以,你这边可否提供下原视频文件看下峰值码率多高
版主≠内部员工

论坛近期卡顿现象较多,发帖/回复按钮点击一次即可,多次点击有可能造成“刷屏”

<strong>请文明发帖,表达不满可以,闹事最严重可以主站论坛双永久封禁
回复 支持 反对

使用道具 举报

4

主题

1475

帖子

3750

积分

版主

Rank: 7Rank: 7Rank: 7

积分
3750
发表于 2019-2-6 22:20:58 | 显示全部楼层
可以考虑加上--vbv-bufsize 19000 --vbv-maxrate 9000压制再试试
版主≠内部员工

论坛近期卡顿现象较多,发帖/回复按钮点击一次即可,多次点击有可能造成“刷屏”

<strong>请文明发帖,表达不满可以,闹事最严重可以主站论坛双永久封禁
回复 支持 反对

使用道具 举报

5

主题

9

帖子

75

积分

小萌新

积分
75
 楼主| 发表于 2019-2-6 23:21:15 | 显示全部楼层
[color=&apos;999999]STeven8888 发表于 2019-2-6 21:20
你好,给你两条建议
1. 压制时不要卡6000,最好选择5900
2.你这边极有可能是峰值码率超了,网站早在18年5月 ...

提供原视频文件是可以的,但是我要怎么提供给你~
回复 支持 反对

使用道具 举报

22

主题

8713

帖子

2万

积分

版主

Rank: 7Rank: 7Rank: 7

积分
20402
发表于 2019-2-7 23:31:11 | 显示全部楼层
[color=&apos;999999]姬基航 发表于 2019-2-6 23:21
提供原视频文件是可以的,但是我要怎么提供给你~

这边问了一下直接上传到网盘然后回复一下分享链接就行。
本人虽然是版主,但并不是B站官方人员
目前各版主是兼职管理,不能每天24小时在线,如长时间无回复/有急需处理的情况请联系:
主站客服
回复 支持 反对

使用道具 举报

您需要登录后才可以发帖 登录

本版积分规则

用户须知|手机版|小黑屋|bilibili  

GMT+8, 2019-8-23 18:02 , Processed in 0.076050 second(s), 20 queries , Xcache On.

Powered by Discuz! X3.2

© 2001-2013 Comsenz Inc.

快速回复 返回顶部 返回列表