请选择 进入手机版 | 继续访问电脑版

bilibili用户反馈论坛

!header_login!

!bilibili_header_login_tip!

搜索
热搜: 番剧 播放
查看: 29|回复: 1

[网页端] 音画不同步 音画不同步

[复制链接]

4

主题

7

帖子

28

积分

小萌新

积分
28
发表于 2019-4-14 13:35:39 | 显示全部楼层 |阅读模式

点击网页右上角登录,为了打开新世界的大门

您需要 登录 才可以下载或查看,没有帐号?立即注册

x
我真的服了,反复上传了NNNN次,审核通过之后都是音画不同步~!
不管是网页端还是手机端都是音画不同步,到底什么时候才能处理好这个问题???



不求人 4-3-1_18s.flv
容器:Flash Video
总码率:8 032 kb/s
大小:1.61 GiB
时长:28 min 40 s 479 ms

视频():AVC
Profile:High@L4
码率:7 814 kb/s
文件大小:1.57 GiB (97%)
分辨率:1920x1080
画面比例:16:9(1.778)
像素宽高比:1.000
帧率:30.000 FPS
色彩空间:YUV
色度抽样:4:2:0
位深度:8 bits
扫描方式:逐行扫描
总帧数:51613

音频():AAC
大小:4.57 MiB (0%)
码率:22.3 kb/s
采样率:44.1 kHz / 22.05 kHz
声道数:2

====详细信息====
Format                                   : AVC
Format/Info                              : Advanced Video Codec
Format profile                           : High@L4
Format settings, CABAC                   : Yes
Format settings, ReFrames                : 4 frames
Codec ID                                 : 7
Duration                                 : 28 min 40 s
Bit rate                                 : 7 814 kb/s
Width                                    : 1 920 pixels
Height                                   : 1 080 pixels
Display aspect ratio                     : 16:9
Frame rate mode                          : Constant
Frame rate                               : 30.000 FPS
Color space                              : YUV
Chroma subsampling                       : 4:2:0
Bit depth                                : 8 bits
Scan type                                : Progressive
Bits/(Pixel*Frame)                       : 0.126
Stream size                              : 1.57 GiB (97%)

Format                                   : AAC
Format/Info                              : Advanced Audio Codec
Format profile                           : HE-AAC / LC
Codec ID                                 : 10
Duration                                 : 28 min 40 s
Bit rate                                 : 22.3 kb/s
Channel(s)                               : 2 channels
Channel(s)_Original                      : 1 channel
Channel positions                        : Front: C
Sampling rate                            : 44.1 kHz / 22.05 kHz
Frame rate                               : 21.533 FPS (1024 spf)
Compression mode                         : Lossy
Delay relative to video                  : 6 s 382 ms
Stream size                              : 4.57 MiB (0%)

回复

使用道具 举报

22

主题

7622

帖子

1万

积分

版主

Rank: 7Rank: 7Rank: 7

积分
18066
发表于 2019-4-15 16:12:47 | 显示全部楼层
。。。这边再反馈一下,请提供出现问题的稿件的av号。
本人虽然是版主,但并不是B站官方人员
目前各版主是兼职管理,不能每天24小时在线,如长时间无回复/有急需处理的情况请联系:
主站客服
回复 支持 反对

使用道具 举报

您需要登录后才可以发帖 登录

本版积分规则

用户须知|手机版|小黑屋|bilibili  

GMT+8, 2019-4-25 00:04 , Processed in 0.065320 second(s), 20 queries , Xcache On.

Powered by Discuz! X3.2

© 2001-2013 Comsenz Inc.

快速回复 返回顶部 返回列表