请选择 进入手机版 | 继续访问电脑版

bilibili用户反馈论坛

!header_login!

!bilibili_header_login_tip!

搜索
热搜: 番剧 播放
查看: 133|回复: 1

未超二压线的稿件被二压,求指点

[复制链接]

1

主题

2

帖子

13

积分

小萌新

积分
13
发表于 2020-4-16 10:25:31 | 显示全部楼层 |阅读模式

点击网页右上角登录,为了打开新世界的大门

您需要 登录 才可以下载或查看,没有帐号?立即注册

x
稿件:BV1dK411L7EE
上传原件的 MediaInfo 参数:

  1. General
  2. Complete name               : E:\OBS\2020-04-11 01-18-04_pass2_2_Mux.mp4
  3. Format                      : MPEG-4
  4. Format profile              : Base Media
  5. Codec ID                    : isom (isom)
  6. File size                   : 2.34 GiB
  7. Duration                    : 53 min 45 s
  8. Overall bit rate mode       : Variable
  9. Overall bit rate            : 6 222 kb/s
  10. Encoded date                : UTC 2020-04-14 10:54:34
  11. Tagged date                 : UTC 2020-04-14 10:54:34

  12. Video
  13. ID                          : 1
  14. Format                      : AVC
  15. Format/Info                 : Advanced Video Codec
  16. Format profile              : High@L5
  17. Format settings             : CABAC / 10 Ref Frames
  18. Format settings, CABAC      : Yes
  19. Format settings, Reference  : 10 frames
  20. Codec ID                    : avc1
  21. Codec ID/Info               : Advanced Video Coding
  22. Duration                    : 53 min 45 s
  23. Bit rate                    : 5 900 kb/s
  24. Maximum bit rate            : 22.7 Mb/s
  25. Width                       : 1 920 pixels
  26. Height                      : 1 080 pixels
  27. Display aspect ratio        : 16:9
  28. Frame rate mode             : Constant
  29. Frame rate                  : 60.000 FPS
  30. Color space                 : YUV
  31. Chroma subsampling          : 4:2:0
  32. Bit depth                   : 8 bits
  33. Scan type                   : Progressive
  34. Bits/(Pixel*Frame)          : 0.047
  35. Stream size                 : 2.21 GiB (95%)
  36. Writing library             : x264 core 159 r2991+50 ce3db24 t_mod_New [(8 &; 10)-bit@all X86_64]
  37. Encoding settings           : cabac=1 / ref=10 / deblock=1:0:0 / *yse=0x3:0x133 / me=umh / subme=10 / psy=1 / fade_compensate=0.00 / psy_rd=1.00:0.00 / mixed_ref=1 / me_range=24 / chroma_me=1 / trellis=2 / 8x8dct=1 / cqm=0 / deadzone=21,11 / fast_pskip=0 / chroma_qp_offset=-2 / threads=24 / lookahead_threads=6 / sliced_threads=0 / nr=0 / decimate=1 / interlaced=0 / bluray_compat=0 / constrained_intra=0 / fgo=0 / bframes=12 / b_pyramid=2 / b_adapt=2 / b_bias=0 / direct=3 / weightb=1 / open_gop=0 / weightp=2 / keyint=600 / keyint_min=1 / scenecut=40 / intra_refresh=0 / rc_lookahead=60 / rc=2pass / mbtree=1 / bitrate=5900 / ratetol=1.0 / qcomp=0.80 / qpmin=0:0:0 / qpmax=69:69:69 / qpstep=4 / cplxblur=20.0 / qblur=0.5 / vbv_maxrate=16000 / vbv_bufsize=12000 / nal_hrd=none / filler=0 / ip_ratio=1.40 / aq=1:1.00 / aq-sensitivity=10.00 / aq-factor=1.00:1.00:1.00 / aq2=0 / aq3=0
  38. Encoded date                : UTC 2020-04-14 10:46:42
  39. Tagged date                 : UTC 2020-04-14 10:54:41
  40. Color range                 : Limited
  41. Codec configuration box     : avcC

  42. Audio
  43. ID                          : 2
  44. Format                      : AAC LC
  45. Format/Info                 : Advanced Audio Codec Low Complexity
  46. Codec ID                    : mp4a-40-2
  47. Duration                    : 53 min 45 s
  48. Bit rate mode               : Variable
  49. Bit rate                    : 320 kb/s
  50. Maximum bit rate            : 334 kb/s
  51. Channel(s)                  : 2 channels
  52. Channel layout              : L R
  53. Sampling rate               : 44.1 kHz
  54. Frame rate                  : 43.066 FPS (1024 SPF)
  55. Compression mode            : Lossy
  56. Stream size                 : 123 MiB (5%)
  57. Encoded date                : UTC 2020-04-14 10:52:44
  58. Tagged date                 : UTC 2020-04-14 10:54:41

复制代码
下载 1080P60 的视频回来查看参数,显示已经被 Bilibili Encoder 二压。仔细检查了一下似乎没有哪个参数超出了二压线。求指点,谢谢~

回复

使用道具 举报

1

主题

2

帖子

13

积分

小萌新

积分
13
 楼主| 发表于 2020-5-1 14:29:44 | 显示全部楼层
emmmm斑竹没有什么想法么
回复 支持 反对

使用道具 举报

您需要登录后才可以发帖 登录

本版积分规则

用户须知|手机版|小黑屋|bilibili  

GMT+8, 2020-5-25 19:53 , Processed in 0.066422 second(s), 20 queries , Xcache On.

Powered by Discuz! X3.2

© 2001-2013 Comsenz Inc.

快速回复 返回顶部 返回列表